런 (Run, 2020)

자막자료실

런 (Run, 2020)

http://cineaste.co.kr/bbs/board.php?bo_table=psd_caption&wr_id=1573232



"위 출처는 커뮤니티 '씨네스트'입니다. http://cineaste.co.kr 이곳에 오시면 다양한 피드백과 관련 자료가 있습니다. 아울러 스크립트를 이용한 불펌을 금합니다.

그리고 타 사이트 업로더 여러분께도 간절히 부탁드립니다. 저작권 문제로 삭제되더라도 가급적이면 퍼가시는 것보다는 링크로 연결해 주시길 부탁드립니다. " 

General

Complete name                  : Run.2020.2160p.HULU.WEB-DL.DDP5.1.HEVC-CMRG.mkv

Format                         : Matroska

Format version                 : Version 4

File size                      : 9.74 GiB

Duration                       : 1 h 29 min

Overall bit rate               : 15.6 Mb/s

Encoded date                   : UTC 2020-11-21 05:04:53

Writing application            : mkvmerge v50.0.0 ('Awakenings') 64-bit

Writing library                : libebml v1.4.0 + libmatroska v1.6.2


Video

ID                             : 1

Format                         : HEVC

Format/Info                    : High Efficiency Video Coding

Format profile                 : Main 10@L5.1@Main

Codec ID                       : V_MPEGH/ISO/HEVC

Duration                       : 1 h 29 min

Bit rate                       : 15.3 Mb/s

Width                          : 3 840 pixels

Height                         : 2 160 pixels

Display aspect ratio           : 16:9

Frame rate mode                : Constant

Frame rate                     : 23.976 (24000/1001) FPS

Color space                    : YUV

Chroma subsampling             : 4:2:0

Bit depth                      : 10 bits

Bits/(Pixel*Frame)             : 0.077

Stream size                    : 9.58 GiB (98%)

Default                        : Yes

Forced                         : No


Audio

ID                             : 2

Format                         : E-AC-3

Format/Info                    : Enhanced AC-3

Commercial name                : Dolby Digital Plus

Codec ID                       : A_EAC3

Duration                       : 1 h 29 min

Bit rate mode                  : Constant

Bit rate                       : 256 kb/s

Channel(s)                     : 6 channels

Channel layout                 : L R C LFE Ls Rs

Sampling rate                  : 48.0 kHz

Frame rate                     : 31.250 FPS (1536 SPF)

Compression mode               : Lossy

Stream size                    : 164 MiB (2%)

Title                          : English

Language                       : English

Service kind                   : Complete Main

Default                        : No

Forced                         : No


Text

ID                             : 3

Format                         : UTF-8

Codec ID                       : S_TEXT/UTF8

Codec ID/Info                  : UTF-8 Plain Text

Duration                       : 1 h 24 min

Bit rate                       : 27 b/s

Count of elements              : 645

Stream size                    : 17.1 KiB (0%)

Title                          : English

Language                       : English

Default                        : No

Forced                         : No


 

Comments

감사합니다.
고맙습니다.
감사합니다.
수고하셨습니다^^
고맙습니다
고맙습니다.
감사드립니다.
감사합니다
감사합니다@@
감사합니다.
감사합니다