질문과답변

Stream size가 정확히 무엇을 의미하나요?

1 상큼한석이 7 132

mkvtoolnix로 제가 필요없는 타국어들, 타국자막들, 챕터를 제거하면

Stream size가 기존에 있는거랑 틀리게 나오네요.

비트나 등등 다 똑같이 나오는데 스트림사이즈만 틀리게 나와요


예)Stream size                    : 7.16 GiB (81%)  <----------------믹스 하기전

Stream size                    : 7.46 GiB (85%) <-------------------믹스 한후


이렇게 값이 틀리게 나오는데 상관없는건가요? 비디오비트랑 오디오비트는 변동이 없고요

  • 페이스북으로 보내기
  • 트위터로 보내기
  • 구글플러스로 보내기
  • 카카오스토리로 보내기
  • 네이버밴드로 보내기
  • 네이버로 보내기
  • 텀블러로 보내기
  • 핀터레스트로 보내기

Comments

제거후에 사이즈가 더 커진건가요??
네, 스트림사이즈만 커지네요...

Congratulation! You win the 16 Lucky Point!

(원본)
General
Complete name                  : A.Werewolf.Boy.2012.1080p.BluRay.x264-GiMCHi.mkv
Format                        : Matroska
Format version                : Version 2
File size                      : 8.74 GiB
Duration                      : 2 h 7 min
Overall bit rate              : 9 794 kb/s
Writing application            : libebml v1.2.3 + libmatroska v1.3.0
Writing library                : mkvmerge v5.7.0 ('The Whirlwind') built on Jul 8 2012 20:08:51

Video
ID                            : 1
Format                        : AVC
Format/Info                    : Advanced Video Codec
Format profile                : High@L4.1
Format settings                : CABAC / 4 Ref Frames
Format settings, CABAC        : Yes
Format settings, ReFrames      : 4 frames
Codec ID                      : V_MPEG4/ISO/AVC
Duration                      : 2 h 7 min
Bit rate                      : 8 288 kb/s
Width                          : 1 920 pixels
Height                        : 1 040 pixels
Display aspect ratio          : 1.85:1
Frame rate mode                : Constant
Frame rate                    : 23.976 (24000/1001) FPS
Color space                    : YUV
Chroma subsampling            : 4:2:0
Bit depth                      : 8 bits
Scan type                      : Progressive
Bits/(Pixel*Frame)            : 0.173
Stream size                    : 7.22 GiB (83%)
Writing library                : x264 core 138 r2358 9e941d1
Encoding settings              : cabac=1 / ref=4 / deblock=1:0:0 / analyse=0x3:0x133 / me=umh / subme=7 / psy=1 / psy_rd=1.00:0.00 / mixed_ref=1 / me_range=16 / chroma_me=1 / trellis=1 / 8x8dct=1 / cqm=0 / deadzone=21,11 / fast_pskip=0 / chroma_qp_offset=-2 / threads=12 / lookahead_threads=2 / sliced_threads=0 / nr=0 / decimate=1 / interlaced=0 / bluray_compat=0 / constrained_intra=0 / bframes=3 / b_pyramid=2 / b_adapt=2 / b_bias=0 / direct=3 / weightb=1 / open_gop=0 / weightp=2 / keyint=240 / keyint_min=23 / scenecut=40 / intra_refresh=0 / rc_lookahead=50 / rc=2pass / mbtree=1 / bitrate=8288 / ratetol=1.0 / qcomp=0.60 / qpmin=0 / qpmax=69 / qpstep=4 / cplxblur=20.0 / qblur=0.5 / ip_ratio=1.40 / aq=1:1.00
Language                      : English
Default                        : Yes
Forced                        : No

Audio
ID                            : 2
Format                        : DTS
Format/Info                    : Digital Theater Systems
Codec ID                      : A_DTS
Duration                      : 2 h 7 min
Bit rate mode                  : Constant
Bit rate                      : 1 509 kb/s
Channel(s)                    : 6 channels
Channel layout                : C L R Ls Rs LFE
Sampling rate                  : 48.0 kHz
Frame rate                    : 93.750 FPS (512 SPF)
Bit depth                      : 24 bits
Compression mode              : Lossy
Stream size                    : 1.35 GiB (15%)
Language                      : Korean
Default                        : Yes
Forced                        : No

Text
ID                            : 3
Format                        : UTF-8
Codec ID                      : S_TEXT/UTF8
Codec ID/Info                  : UTF-8 Plain Text
Language                      : English
Default                        : No
Forced                        : No

Menu
00:00:00.000                  : en:00:00:00.000
00:06:31.641                  : en:00:06:31.641
00:14:15.438                  : en:00:14:15.438
00:21:13.731                  : en:00:21:13.731
00:27:10.796                  : en:00:27:10.796
00:37:56.608                  : en:00:37:56.608
00:42:33.718                  : en:00:42:33.718
00:48:38.207                  : en:00:48:38.207
00:57:34.826                  : en:00:57:34.826
01:05:08.655                  : en:01:05:08.655
01:14:23.459                  : en:01:14:23.459
01:21:00.814                  : en:01:21:00.814
01:27:47.387                  : en:01:27:47.387
01:36:38.876                  : en:01:36:38.876
01:48:50.107                  : en:01:48:50.107
02:01:13.516                  : en:02:01:13.516
(믹스본)
General
Complete name                  : A.Werewolf.Boy.2012.1080p.BluRay.x264-GiMCHi(1).mkv
Format                        : Matroska
Format version                : Version 4
File size                      : 8.74 GiB
Duration                      : 2 h 7 min
Overall bit rate              : 9 794 kb/s
Encoded date                  : UTC 2018-12-06 01:56:56
Writing application            : mkvmerge v28.2.0 ('The Awakening') 32-bit
Writing library                : libebml v1.3.6 + libmatroska v1.4.9

Video
ID                            : 1
Format                        : AVC
Format/Info                    : Advanced Video Codec
Format profile                : High@L4.1
Format settings                : CABAC / 4 Ref Frames
Format settings, CABAC        : Yes
Format settings, ReFrames      : 4 frames
Codec ID                      : V_MPEG4/ISO/AVC
Duration                      : 2 h 7 min
Bit rate                      : 8 288 kb/s
Width                          : 1 920 pixels
Height                        : 1 040 pixels
Display aspect ratio          : 1.85:1
Frame rate mode                : Constant
Frame rate                    : 23.976 (24000/1001) FPS
Color space                    : YUV
Chroma subsampling            : 4:2:0
Bit depth                      : 8 bits
Scan type                      : Progressive
Bits/(Pixel*Frame)            : 0.173
Stream size                    : 7.39 GiB (85%)
Writing library                : x264 core 138 r2358 9e941d1
Encoding settings              : cabac=1 / ref=4 / deblock=1:0:0 / analyse=0x3:0x133 / me=umh / subme=7 / psy=1 / psy_rd=1.00:0.00 / mixed_ref=1 / me_range=16 / chroma_me=1 / trellis=1 / 8x8dct=1 / cqm=0 / deadzone=21,11 / fast_pskip=0 / chroma_qp_offset=-2 / threads=12 / lookahead_threads=2 / sliced_threads=0 / nr=0 / decimate=1 / interlaced=0 / bluray_compat=0 / constrained_intra=0 / bframes=3 / b_pyramid=2 / b_adapt=2 / b_bias=0 / direct=3 / weightb=1 / open_gop=0 / weightp=2 / keyint=240 / keyint_min=23 / scenecut=40 / intra_refresh=0 / rc_lookahead=50 / rc=2pass / mbtree=1 / bitrate=8288 / ratetol=1.0 / qcomp=0.60 / qpmin=0 / qpmax=69 / qpstep=4 / cplxblur=20.0 / qblur=0.5 / ip_ratio=1.40 / aq=1:1.00
Language                      : English
Default                        : Yes
Forced                        : No

Audio
ID                            : 2
Format                        : DTS
Format/Info                    : Digital Theater Systems
Codec ID                      : A_DTS
Duration                      : 2 h 7 min
Bit rate mode                  : Constant
Bit rate                      : 1 509 kb/s
Channel(s)                    : 6 channels
Channel layout                : C L R Ls Rs LFE
Sampling rate                  : 48.0 kHz
Frame rate                    : 93.750 FPS (512 SPF)
Bit depth                      : 24 bits
Compression mode              : Lossy
Stream size                    : 1.35 GiB (15%)
Language                      : Korean
Default                        : Yes
Forced                        : No

******************스트림싸이즈만 틀리네요**************************
원본의 스트림 사이즈가 좀 이상하네요. 비디오 스트림과 오디오 스트림 사이즈를 합하면 보통 파일사이즈가 되는데 계산이 맞질 않군요.
MediaInfo의 Stream Size 필드는 mkv파일의 메타데이터에서 정보를 뽑아 보여줄 겁니다 (실제 파일 전체를 분석하지 않고 - 오래 걸리니까)
원본 mkv파일의 메타데이터에 정보가 잘못된게 아닐지..

원본과 작업본에서 비디오 트랙만 추출하고 해시값 계산해서 비교해 보시는게 어떨까요
아니면 MediaInfo 실행 - 메뉴의 Debug - Full parsing 선택 - 파일 열기
해서 실제 파일 분석하도록 해서 비교해 보세요